»
»

Скачать сериал Шторм (1-8 серии из 8) (Борис Хлебников) / [2019, драма, детектив, WEBRip-AVC] - торрент

Нажмите синюю кнопку, чтобы cкачать бесплатно через торрент сериал. Сериал доступен на нашем торрент-трекере бесплатно, без регистрации и смс.

Статистика раздачи
0 [ 0 b/s ] ↑ 5.7 GB ↓ 0 [ 0 b/s ]
Автор Сообщение
BLIZNEC W
2019-09-05 10:49
Шторм (1-8 серии из 8)
Шторм Перевод: Не требуется, cубтитры: отсутствуют
Формат: WEBRip-AVC, MKV, H.264, AC3
Страна: Россия
Режиссер: Борис Хлебников
Жанр: драма, детектив
Всего серий: 8
Продолжительность: 8 х ~ 00:50:00
Год выпуска: 2019

В ролях: Александр Робак, Максим Лагашкин, Анна Михалкова, Анна Котова-Дерябина, Наталья Рогожкина, Геннадий Смирнов, Александр Мосин, Михаил Брашинский, Дарья Жовнер, Дмитрий Лысенков, Валерий Дьяченко, Илья Борисов, Максим Яковлев, Сергей Уманов, Евгений Муравич, Серафима Селиванова, Егор Соловьёв, Тамара Абросимова, Ольга Альбанова, Анна Вартаньян, Юрий Дельгадо, Евгений Антонов, Алексей Удальцов, Павел Сергеев, Янина Лакоба, Игорь Волков, Вадим Лобанов, Татьяна Рассказова, Александр Кононец, Ксения Породько (Ефимова), Лилия Хузина, Валерия Репина, Анна Пармас, Степан Пивкин, Вероника Анискина, Владимир Селезнёв, Светлана Болмотова, Марина Дуксова, Елена Донина, Евгенин Серзин, Дмитрий Бутеев, Анна Рыцарева, Евгений Зарубин, Денис Пьянов, Александр Карпухов, Алексей Севастьянов, Владимир Лабецкий, Никита Чеканов, Владимир Сорокалита, Сергей Сафронов, Борис Ивушин, Марьяна Анохина, Наталья Дрозд-Макан, Борис Хасанов, Анастасия Маргер, Алексей Красноцветов, Юлия Кудояр, Анна Некрасова (II), Александр Глинский, Мария Антонова (II), Вадим Прохоров, Наталья Лыжина, Андрей Перович…

Описание: В центре сюжета – двое друзей, Михаил Осокин (Максим Лагашкин) и Сергей Градов (Александр Робак). Первый работает в убойном отделе полиции, второй – в отделе по борьбе с коррупцией. Чтобы спасти жену от смертельной болезни и найти деньги на дорогостоящую операцию, Градов идет на должностные преступления и пытается скрыть улики. Изворотливый ум и талант выстраивать сложные многоходовые схемы делают его практически неуловимым. Расследующий череду преступлений Осокин начинает догадываться, что к делу причастен Градов, хотя достаточных доказательств у него пока нет. Для Михаила становится делом чести изобличить своего друга.«Выше правды есть любовь»
Рейтинг и доп. информация:


Видео: 1024x576, (16:9), 23,976 fps, AVC MPEG-4 (x264), High@L4.1 ~ 1600 kbps , 0.113 bit/pixel
Аудио: 48 kHz, АС3, 2/0 (L,R), ~192.00 kbps avg
Полный список актёров
Александр Робак, Максим Лагашкин, Анна Михалкова, Анна Котова-Дерябина, Наталья Рогожкина, Геннадий Смирнов, Александр Мосин, Михаил Брашинский, Дарья Жовнер, Дмитрий Лысенков, Валерий Дьяченко, Илья Борисов, Максим Яковлев, Сергей Уманов, Евгений Муравич, Серафима Селиванова, Егор Соловьёв, Тамара Абросимова, Ольга Альбанова, Анна Вартаньян, Юрий Дельгадо, Евгений Антонов, Алексей Удальцов, Павел Сергеев, Янина Лакоба, Игорь Волков, Вадим Лобанов, Татьяна Рассказова, Александр Кононец, Ксения Породько (Ефимова), Лилия Хузина, Валерия Репина, Анна Пармас, Степан Пивкин, Вероника Анискина, Владимир Селезнёв, Светлана Болмотова, Марина Дуксова, Елена Донина, Евгенин Серзин, Дмитрий Бутеев, Анна Рыцарева, Евгений Зарубин, Денис Пьянов, Александр Карпухов, Алексей Севастьянов, Владимир Лабецкий, Никита Чеканов, Владимир Сорокалита, Сергей Сафронов, Борис Ивушин, Марьяна Анохина, Наталья Дрозд-Макан, Борис Хасанов, Анастасия Маргер, Алексей Красноцветов, Юлия Кудояр, Анна Некрасова (II), Александр Глинский, Мария Антонова (II), Вадим Прохоров, Наталья Лыжина, Андрей Перович, Антон Денисов, Кирилл Фролов, Антон Быстров-Мокрый, Валентина Лебедева, Наталья Иохвидова, Елена Осипова (II), Александр Голубков (II), Егор Пчёлкин, Александра Лахтюхова, Егор Келли, Евгений Зайфрид, Виталий Лобанов, Сергей Тетерин, Евгений Цыбулевский, Константин Пурусов
MediaInfo
Общее
Уникальный идентификатор : 195680978929688771010087907471228239991 (0x9336C922C4A40F32B8B6CDA239718077)
Полное имя : C:\Shtorm.(2019).WEBRip.(AVC).Files-x\01.Shtorm.(2019).WEBRip.(AVC).by.Серый1779.Files-x.mkv
Формат : Matroska
Версия формата : Version 2
Размер файла : 785 Мбайт
Продолжительность : 1 ч. 1 м.
Общий поток : 1791 Кбит/сек
Дата кодирования : UTC 2019-09-04 23:13:35
Программа кодирования : mkvmerge v7.8.0 ('River Man') 32bit built on Apr 3 2015 12:11:22
Библиотека кодирования : libebml v1.3.1 + libmatroska v1.4.2

Видео
Идентификатор : 1
Формат : AVC
Формат/Информация : Advanced Video Codec
Профиль формата : High@L4.1
Настройки формата : CABAC / 9 Ref Frames
Параметр CABAC формата : Да
Параметр RefFrames формата : 9 кадров
Идентификатор кодека : V_MPEG4/ISO/AVC
Продолжительность : 1 ч. 1 м.
Битрейт : 1600 Кбит/сек
Ширина : 1024 пикселя
Высота : 576 пикселей
Соотношение сторон : 16:9
Режим частоты кадров : Постоянный
Частота кадров : 23,976 кадра/сек
Цветовое пространство : YUV
Субдискретизация насыщенности : 4:2:0
Битовая глубина : 8 бит
Тип развёртки : Прогрессивная
Бит/(Пиксели*Кадры) : 0.113
Размер потока : 685 Мбайт (87%)
Библиотека кодирования : x264 core 146 r2538 121396c
Настройки программы : cabac=1 / ref=9 / deblock=1:-2:-1 / analyse=0x3:0x133 / me=umh / subme=9 / psy=1 / psy_rd=1.00:0.15 / mixed_ref=1 / me_range=32 / chroma_me=1 / trellis=2 / 8x8dct=1 / cqm=0 / deadzone=21,11 / fast_pskip=0 / chroma_qp_offset=-3 / threads=18 / lookahead_threads=3 / sliced_threads=0 / nr=0 / decimate=1 / interlaced=0 / bluray_compat=0 / constrained_intra=0 / bframes=9 / b_pyramid=2 / b_adapt=2 / b_bias=0 / direct=1 / weightb=1 / open_gop=0 / weightp=2 / keyint=250 / keyint_min=23 / scenecut=40 / intra_refresh=0 / rc=2pass / mbtree=0 / bitrate=1600 / ratetol=1.0 / qcomp=0.60 / qpmin=0 / qpmax=69 / qpstep=4 / cplxblur=20.0 / qblur=0.5 / ip_ratio=1.40 / pb_ratio=1.30 / aq=2:1.00
Default : Да
Forced : Нет
Цветовой диапазон : Limited
Основные цвета : BT.709
Характеристики трансфера : BT.709
Коэффициенты матрицы : BT.709

Аудио
Идентификатор : 2
Формат : AC-3
Формат/Информация : Audio Coding 3
Коммерческое название : Dolby Digital
Идентификатор кодека : A_AC3
Продолжительность : 1 ч. 1 м.
Вид битрейта : Постоянный
Битрейт : 192 Кбит/сек
Каналы : 2 канала
ChannelLayout : L R
Частота : 48,0 КГц
Частота кадров : 31,250 кадров/сек (1536 SPF)
Битовая глубина : 16 бит
Метод сжатия : С потерями
Размер потока : 84,1 Мбайт (11%)
ServiceKind/String : Complete Main
Default : Да
Forced : Нет

загрузка...
Информация о торренте:
Размер содержимого: 5.7 GB
Скачан: 848 раз
Статус: Проверен
Зарегистрирован на трекере: 2019-10-18 20:06
Скачать торрент


Поддержи раздачу — поставь лайк:
BLIZNEC W
2019-09-05 09:49
Интересного и приятного просмотра!!!

Мои раздачи
BARSIK1967
2019-09-05 11:15
Интересно.....???

СПАСИБО !!!
BLIZNEC W
2019-09-09 12:21
Дата выхода серий:

Серия 1 – 5 сентября 2019
Серия 2 – 5 сентября 2019
Серия 3 – 12 сентября 2019
Серия 4 – 19 сентября 2019
Серия 5 – 26 сентября 2019
Серия 6 – 3 октября 2019
Серия 7– 10 октября 2019
Серия 8 – 17 октября 2019

Nata47
2019-09-13 13:47
Спасибо!!!!! :ugu:
pilotas55
2019-09-15 14:01
Спасибо!!Захватывающий филмец!!Неплохо бы ускорить расылочку других серий!!! :driends:
radiolina
2019-10-22 15:02
По поводу гепатита С у бабы главного героя чушь и дичь просто редчайшая, полное несоответствие реальности:

1. сейчас гепатит излечиватся таблетками без особых побочных эффектов.

2. даже старый метод лечения гепатита (интерферон + рибамидил) не имел таких побочек, как это показано здесь.

Дерьмо для недалеких.
rdv
2019-11-12 22:19
Отлично зашел!
Писать комментарии на нашем торрент-трекере могут только зарегистрированные пользователи.
Зарегистрируйтесь или авторизируйтесь на сайте.